DocumentaryLoversGR
Τι θα λέγατε να εγγραφτείτε σήμερα στο Νο1 Φόρουμ για Ντοκιμαντέρ παντός ειδών?? Έχουμε πληθώρα από Ντοκιμαντέρ, μεταγλωττισμένα και Υποτιτλησμένα, ενώ θα έχετε την ευκαιρία να πάρετε μέρος στις συζητήσεις μας!!

[MEGA] A presantation of The History Channel: Decoding the Past VCDRip (2005-2011)

Δημοσίευση νέας Θ.Ενότητας   Απάντηση στη Θ.Ενότητα

Επισκόπηση προηγούμενης Θ.Ενότητας Επισκόπηση επόμενης Θ.Ενότητας Πήγαινε κάτω

30092015

Δημοσίευση 

[MEGA] A presantation of The History Channel: Decoding the Past VCDRip (2005-2011)





Το ριπάρισμα έγινε από δικά μου VCDs και ο υποτιτλισμός έγινε στα στούντιου της Odeon S.A.!!
Επεισόδια:
Επεισόδιο 26: Mysteries of the Bermuda Triangle Part 1 & 2 - Τα μυστήρια του Τρίγωνου των Βερμούδων Μέρος 1 & 2
Επεισόδιο 14: Presidential Prophecies - Προεδρικές Προφητείες


SCREENSHORTS:
MEDIA INFO:
General
Complete name                            : C:\Users\seven\Documents\Bermula.mpg
Format                                   : MPEG-PS
File size                                : 468 MiB
Duration                                 : 46mn 54s
Overall bit rate                         : 1 395 Kbps

Video
ID                                       : 224 (0xE0)
Format                                   : MPEG Video
Format version                           : Version 1
Format settings, BVOP                    : Yes
Format settings, Matrix                  : Custom
Format settings, GOP                     : M=3, N=12
Duration                                 : 46mn 54s
Bit rate                                 : 1 152 Kbps
Width                                    : 352 pixels
Height                                   : 288 pixels
Display aspect ratio                     : 4:3
Frame rate                               : 25.000 fps
Standard                                 : PAL
Color space                              : YUV
Chroma subsampling                       : 4:2:0
Bit depth                                : 8 bits
Scan type                                : Progressive
Compression mode                         : Lossy
Bits/(Pixel*Frame)                       : 0.454
Time code of first frame                 : 00:00:00:00
Time code source                         : Group of pictures header
Stream size                              : 383 MiB (82%)

Audio
ID                                       : 192 (0xC0)
Format                                   : MPEG Audio
Format version                           : Version 1
Format profile                           : Layer 2
Duration                                 : 46mn 54s
Bit rate mode                            : Constant
Bit rate                                 : 224 Kbps
Channel count                            : 2 channels
Sampling rate                            : 44.1 KHz
Compression mode                         : Lossy
Delay relative to video                  : 26ms
Stream size                              : 75.2 MiB (16%)

LINK:

Admin
Admin
Admin

Αριθμός μηνυμάτων : 30
Ημερομηνία εγγραφής : 29/09/2015

Επισκόπηση του προφίλ των χρηστών http://documentaryloversgr.forumgreek.com

Επιστροφή στην κορυφή Πήγαινε κάτω

Μοιραστείτε αυτή τη δημοσίευση στο: Excite BookmarksDiggRedditDel.icio.usGoogleLiveSlashdotNetscapeTechnoratiStumbleUponNewsvineFurlYahooSmarking

 
Δικαιώματα σας στην κατηγορία αυτή
Μπορείτε να απαντήσετε στα Θέματα αυτής της Δ.Συζήτησης