DocumentaryLoversGR
Τι θα λέγατε να εγγραφτείτε σήμερα στο Νο1 Φόρουμ για Ντοκιμαντέρ παντός ειδών?? Έχουμε πληθώρα από Ντοκιμαντέρ, μεταγλωττισμένα και Υποτιτλησμένα, ενώ θα έχετε την ευκαιρία να πάρετε μέρος στις συζητήσεις μας!!

[MEGA] Όταν μαύρισαν οι οθόνες DVDRip (2013)

Επισκόπηση προηγούμενης Θ.Ενότητας Επισκόπηση επόμενης Θ.Ενότητας Πήγαινε κάτω

06112015

Δημοσίευση 

[MEGA] Όταν μαύρισαν οι οθόνες DVDRip (2013)






Στις 11 Ιουνίου 2013, ο αρμόδιος Υπουργός Τύπου και Μέσων Ενημέρωσης, και κυβερνητικός εκπρόσωπος Σίμος Κεδίκογλου, ανακοίνωσε πως τα μεσάνυχτα της ιδίας μέρας η ΕΡΤ θα έκλεινε οριστικά και οι περίπου 2.656 εργαζόμενοι της θα απολύονταν. Γύρω στα μεσάνυχτα διακόπηκε η εκπομπή σήματος σταδιακά σε όλη την Ελλάδα, με την επέμβαση των ΜΑΤ στους πομπούς που διέθετε η ΕΡΤ.

Το κλείσιμο της ΕΡΤ πυροδότησε κύμα διαμαρτυριών και αντιδράσεων σε όλη την Ελλάδα, ενώ κύμα αντιδράσεων προκλήθηκε και στο εξωτερικό με την απαρχή της τηλεοπτικής κάλυψης των γεγονότων στο Ραδιομέγαρο από ξένα τηλεοπτικά δίκτυα. Ύστερα από απαίτηση του Συμβουλίου της Επικρατείας για ύπαρξη δημόσιου ραδιοτηλεοπτικού φορέα, η κυβέρνηση δημιούργησε έναν προσωρινό φορέα, τη Δημόσια Τηλεόραση, ενώ νομοθέτησε και έναν μόνιμο διάδοχο της ΕΡΤ, τη ΝΕΡΙΤ. Η επιλογή αυτή δεν ικανοποίησε τη Δημοκρατική Αριστερά, τον τότε τρίτο κυβερνητικό εταίρο, η οποία στις 21 Ιουνίου 2013 αποχώρησε από τη συγκυβέρνηση.

Παρά την ανακοίνωση, οι εργαζόμενοι της ΕΡΤ συνέχισαν να εκπέμπουν προγράμματα. Μετά το κλείσιμο των πομπών και της ιστοσελίδας της ΕΡΤ, οι μεταδόσεις των εκπομπών συνεχίστηκαν μέσω δορυφόρου με εξοπλισμό της Ευρωπαϊκής Ραδιοτηλεοπτικής Ένωσης (EBU). Στις 24 Οκτωβρίου 2013 η EBU σταμάτησε να αναμεταδίδει το πρόγραμμα της ΕΡΤ μέσα από τους δορυφόρους της, γεγονός που επηρέασε την επίγεια αναμετάδοσή της σε κάποια μέρη της Ελλάδας. Τα ξημερώματα της Πέμπτης 7 Νοεμβρίου 2013 τα ΜΑΤ και με παρουσία εισαγγελέα εισέβαλαν στο Ραδιομέγαρο της Αγίας Παρασκευής και το εκκένωσαν. Μια μειοψηφία των εργαζόμενων της ΕΡΤ συνέχισε τη μετάδοση προγραμμάτων μέσα από το εγχείρημα της ΕΡΤ Open.

media info:
General
Complete name                            : C:\Greek [DTV-VCD-DVD Ripped] Documentaries\000.mp4
Format                                   : MPEG-4
Format profile                           : Base Media / Version 2
Codec ID                                 : mp42
File size                                : 539 MiB
Duration                                 : 45mn 54s
Overall bit rate mode                    : Variable
Overall bit rate                         : 1 643 Kbps
Encoded date                             : UTC 2036-02-06 06:28:16
Tagged date                              : UTC 2036-02-06 06:28:16
Writing application                      : HandBrake 0.10.2 2015060900

Video
ID                                       : 1
Format                                   : AVC
Format/Info                              : Advanced Video Codec
Format profile                           : Main@L4.0
Format settings, CABAC                   : Yes
Format settings, ReFrames                : 4 frames
Codec ID                                 : avc1
Codec ID/Info                            : Advanced Video Coding
Duration                                 : 45mn 54s
Bit rate                                 : 1 476 Kbps
Width                                    : 714 pixels
Height                                   : 578 pixels
Display aspect ratio                     : 16:9
Frame rate mode                          : Constant
Frame rate                               : 25.000 fps
Color space                              : YUV
Chroma subsampling                       : 4:2:0
Bit depth                                : 8 bits
Scan type                                : Progressive
Bits/(Pixel*Frame)                       : 0.143
Stream size                              : 485 MiB (90%)
Writing library                          : x264 core 142 r2479 dd79a61
Encoding settings                        : cabac=1 / ref=1 / deblock=1:0:0 / analyse=0x1:0x111 / me=hex / subme=2 / psy=1 / psy_rd=1.00:0.00 / mixed_ref=0 / me_range=16 / chroma_me=1 / trellis=0 / 8x8dct=0 / cqm=0 / deadzone=21,11 / fast_pskip=1 / chroma_qp_offset=0 / threads=3 / lookahead_threads=1 / sliced_threads=0 / nr=0 / decimate=1 / interlaced=0 / bluray_compat=0 / constrained_intra=0 / bframes=3 / b_pyramid=2 / b_adapt=1 / b_bias=0 / direct=1 / weightb=1 / open_gop=0 / weightp=1 / keyint=250 / keyint_min=25 / scenecut=40 / intra_refresh=0 / rc_lookahead=10 / rc=crf / mbtree=1 / crf=20.0 / qcomp=0.60 / qpmin=0 / qpmax=69 / qpstep=4 / vbv_maxrate=20000 / vbv_bufsize=25000 / crf_max=0.0 / nal_hrd=none / filler=0 / ip_ratio=1.40 / aq=1:1.00
Encoded date                             : UTC 2036-02-06 06:28:16
Tagged date                              : UTC 2036-02-06 06:28:16
Color primaries                          : BT.601 PAL
Transfer characteristics                 : BT.709
Matrix coefficients                      : BT.601

Audio
ID                                       : 2
Format                                   : AAC
Format/Info                              : Advanced Audio Codec
Format profile                           : LC
Codec ID                                 : 40
Duration                                 : 45mn 54s
Bit rate mode                            : Variable
Bit rate                                 : 161 Kbps
Channel count                            : 2 channels
Channel positions                        : Front: L R
Sampling rate                            : 48.0 KHz
Compression mode                         : Lossy
Delay relative to video                  : 80ms
Stream size                              : 52.7 MiB (10%)
Title                                    : Stereo
Encoded date                             : UTC 2036-02-06 06:28:16
Tagged date                              : UTC 2036-02-06 06:28:16

link:

Admin
Admin
Admin

Αριθμός μηνυμάτων : 29
Ημερομηνία εγγραφής : 29/09/2015

Επισκόπηση του προφίλ των χρηστών http://documentaryloversgr.forumgreek.com

Επιστροφή στην κορυφή Πήγαινε κάτω

- Παρόμοια θέματα
Μοιραστείτε αυτή τη δημοσίευση στο: Excite BookmarksDiggRedditDel.icio.usGoogleLiveSlashdotNetscapeTechnoratiStumbleUponNewsvineFurlYahooSmarking

[MEGA] Όταν μαύρισαν οι οθόνες DVDRip (2013) :: Σχόλια

Δημοσίευση Την / Το Πεμ Νοε 12, 2015 6:38 pm από Alex

Ευχαριστώ!

Επιστροφή στην κορυφή Πήγαινε κάτω

avatar

Δημοσίευση Την / Το Τετ Νοε 25, 2015 7:25 am από Nikos7Gauros

Ευχαριστούμε! Smile

Επιστροφή στην κορυφή Πήγαινε κάτω

Δημοσίευση Την / Το Σαβ Δεκ 05, 2015 1:15 am από Mak93

cheers

Επιστροφή στην κορυφή Πήγαινε κάτω

Επισκόπηση προηγούμενης Θ.Ενότητας Επισκόπηση επόμενης Θ.Ενότητας Επιστροφή στην κορυφή


 
Δικαιώματα σας στην κατηγορία αυτή
Δεν μπορείτε να απαντήσετε στα Θέματα αυτής της Δ.Συζήτησης