DocumentaryLoversGR
Τι θα λέγατε να εγγραφτείτε σήμερα στο Νο1 Φόρουμ για Ντοκιμαντέρ παντός ειδών?? Έχουμε πληθώρα από Ντοκιμαντέρ, μεταγλωττισμένα και Υποτιτλησμένα, ενώ θα έχετε την ευκαιρία να πάρετε μέρος στις συζητήσεις μας!!

[MEGA] A production of Discovery Channel: Raging Planet VCDRip (1997)

Επισκόπηση προηγούμενης Θ.Ενότητας Επισκόπηση επόμενης Θ.Ενότητας Πήγαινε κάτω

30092015

Δημοσίευση 

[MEGA] A production of Discovery Channel: Raging Planet VCDRip (1997)





Η σειρά παραγωγής 1997, μιλάει για φυσικούς σεισμούς όπως ανεμοστρόβιλους, ηφαίστεια κτλ. με την υπογραφή του Discovery Channel!!!
Η σειρά αποτελεί παραγωγή της Pioneer Productions για λογαριασμό του Discovery Channel. Στην Ελλάδα έχει υποτιτλιστεί από την VideoPress και έχει διανεμηθεί από την Alpha Media.

SCREENSHORTS:
MEDIA INFO:
General
Complete name                            : C:\Users\seven\Documents\Raging Planet Volcano.mpg
Format                                   : MPEG-PS
File size                                : 528 MiB
Duration                                 : 52mn 59s
Overall bit rate                         : 1 394 Kbps

Video
ID                                       : 224 (0xE0)
Format                                   : MPEG Video
Format version                           : Version 1
Format settings, BVOP                    : Yes
Format settings, Matrix                  : Custom
Format settings, GOP                     : M=3, N=15
Duration                                 : 52mn 59s
Bit rate                                 : 1 150 Kbps
Width                                    : 352 pixels
Height                                   : 288 pixels
Display aspect ratio                     : 4:3
Frame rate                               : 25.000 fps
Standard                                 : PAL
Color space                              : YUV
Chroma subsampling                       : 4:2:0
Bit depth                                : 8 bits
Scan type                                : Progressive
Compression mode                         : Lossy
Bits/(Pixel*Frame)                       : 0.454
Time code of first frame                 : 00:00:00:00
Time code source                         : Group of pictures header
Stream size                              : 433 MiB (82%)

Audio
ID                                       : 192 (0xC0)
Format                                   : MPEG Audio
Format version                           : Version 1
Format profile                           : Layer 2
Duration                                 : 52mn 59s
Bit rate mode                            : Constant
Bit rate                                 : 224 Kbps
Channel count                            : 2 channels
Sampling rate                            : 44.1 KHz
Compression mode                         : Lossy
Stream size                              : 84.9 MiB (16%)

LINK:

Admin
Admin
Admin

Αριθμός μηνυμάτων : 29
Ημερομηνία εγγραφής : 29/09/2015

Επισκόπηση του προφίλ των χρηστών http://documentaryloversgr.forumgreek.com

Επιστροφή στην κορυφή Πήγαινε κάτω

- Παρόμοια θέματα
Μοιραστείτε αυτή τη δημοσίευση στο: Excite BookmarksDiggRedditDel.icio.usGoogleLiveSlashdotNetscapeTechnoratiStumbleUponNewsvineFurlYahooSmarking

 
Δικαιώματα σας στην κατηγορία αυτή
Δεν μπορείτε να απαντήσετε στα Θέματα αυτής της Δ.Συζήτησης