DocumentaryLoversGR
Τι θα λέγατε να εγγραφτείτε σήμερα στο Νο1 Φόρουμ για Ντοκιμαντέρ παντός ειδών?? Έχουμε πληθώρα από Ντοκιμαντέρ, μεταγλωττισμένα και Υποτιτλησμένα, ενώ θα έχετε την ευκαιρία να πάρετε μέρος στις συζητήσεις μας!!

[MEGA] Anthony Bourdain: No Reservations DTVRip (2005-2012)

Επισκόπηση προηγούμενης Θ.Ενότητας Επισκόπηση επόμενης Θ.Ενότητας Πήγαινε κάτω

08102015

Δημοσίευση 

[MEGA] Anthony Bourdain: No Reservations DTVRip (2005-2012)






Anthony Bourdain: No Reservations is an American travel and food show that airs on the Travel Channel; it also airs on the Discovery Travel & Living channel around the world. In it, host Anthony Bourdain visits overseas countries, cities worldwide, and places within the U.S., where hosts treat him to local culture and cuisine. The series premiered in 2005 on the Travel Channel. The format and content of the show is similar to Bourdain's 2001–2002 Food Network series, A Cook's Tour. The Travel Channel announced that season 9 would be the show's final season. Season 9 premiered on September 3, 2012 and concluded with its series finale episode (Brooklyn) on November 5, 2012.

SCREENSHORTS:

MEDIA INFO:
General
Complete name                            : C:\Greek [DTV Ripped] Documentaries\No Reservations Ιαπωνία.mp4
Format                                   : MPEG-4
Format profile                           : Base Media / Version 2
Codec ID                                 : mp42
File size                                : 567 MiB
Duration                                 : 24mn 51s
Overall bit rate                         : 3 187 Kbps

Video
ID                                       : 1
Format                                   : AVC
Format/Info                              : Advanced Video Codec
Format profile                           : Baseline@L3.1
Format settings, CABAC                   : No
Format settings, ReFrames                : 1 frame
Format settings, GOP                     : M=1, N=15
Codec ID                                 : avc1
Codec ID/Info                            : Advanced Video Coding
Duration                                 : 24mn 51s
Source duration                          : 24mn 51s
Bit rate mode                            : Variable
Bit rate                                 : 3 052 Kbps
Width                                    : 960 pixels
Height                                   : 720 pixels
Display aspect ratio                     : 4:3
Frame rate mode                          : Constant
Frame rate                               : 29.970 fps
Color space                              : YUV
Chroma subsampling                       : 4:2:0
Bit depth                                : 8 bits
Scan type                                : Progressive
Bits/(Pixel*Frame)                       : 0.147
Stream size                              : 543 MiB (96%)
Source stream size                       : 543 MiB (96%)
mdhd_Duration                            : 1491256

Audio
ID                                       : 2
Format                                   : AAC
Format/Info                              : Advanced Audio Codec
Format profile                           : LC
Codec ID                                 : 40
Duration                                 : 24mn 51s
Bit rate mode                            : Constant
Bit rate                                 : 128 Kbps
Channel count                            : 2 channels
Channel positions                        : Front: L R
Sampling rate                            : 48.0 KHz
Compression mode                         : Lossy
Stream size                              : 23.4 MiB (4%)
mdhd_Duration                            : 1491200

LINK:
https://mega.nz/#!eIkCzSzY!EeRmSXcbdzgWUdLwDW1rAoWAsDC0UyVNon-D46f6i04


Έχει επεξεργασθεί από τον/την Admin στις Τρι Νοε 03, 2015 2:54 am, 1 φορά

Admin
Admin
Admin

Αριθμός μηνυμάτων : 29
Ημερομηνία εγγραφής : 29/09/2015

Επισκόπηση του προφίλ των χρηστών http://documentaryloversgr.forumgreek.com

Επιστροφή στην κορυφή Πήγαινε κάτω

- Παρόμοια θέματα
Μοιραστείτε αυτή τη δημοσίευση στο: Excite BookmarksDiggRedditDel.icio.usGoogleLiveSlashdotNetscapeTechnoratiStumbleUponNewsvineFurlYahooSmarking

 
Δικαιώματα σας στην κατηγορία αυτή
Δεν μπορείτε να απαντήσετε στα Θέματα αυτής της Δ.Συζήτησης