DocumentaryLoversGR
Τι θα λέγατε να εγγραφτείτε σήμερα στο Νο1 Φόρουμ για Ντοκιμαντέρ παντός ειδών?? Έχουμε πληθώρα από Ντοκιμαντέρ, μεταγλωττισμένα και Υποτιτλησμένα, ενώ θα έχετε την ευκαιρία να πάρετε μέρος στις συζητήσεις μας!!

[MEGA] ActionAid: Made in Bangladesh DTVRip (2015)

Δημοσίευση νέας Θ.Ενότητας   Απάντηση στη Θ.Ενότητα

Επισκόπηση προηγούμενης Θ.Ενότητας Επισκόπηση επόμενης Θ.Ενότητας Πήγαινε κάτω

08102015

Δημοσίευση 

[MEGA] ActionAid: Made in Bangladesh DTVRip (2015)






To ντοκιμαντέρ «Made in Bangladesh, το πραγματικό κόστος των φθηνών μας ρούχων, γυρίστηκε με αφορμή την επέτειο δύο χρόνων από την κατάρρευση του εργοστασίου ρούχων Rana Plaza στη Ντάκα, πρωτεύουσα το Μπαγκλαντές. Η κατάρρευση προκάλεσε τη μεγαλύτερη βιομηχανική τραγωδία της ιστορίας με περισσότερους από 1.138 θανάτους, περίπου 2.000 τραυματισμούς, ενώ 104 άνθρωποι ακόμα αγνοούνται.

Η είδηση έκανε το γύρο του κόσμου και γκρέμισε τη βιτρίνα της παγκόσμιας βιομηχανίας μόδας, καθώς στο Rana Plaza κατασκευάζονταν ρούχα για 31 ευρωπαϊκές, αμερικανικές και καναδικές εταιρείες, κάποιες από τις οποίες είναι ιδιαίτερα αγαπητές και στην Ελλάδα. Η ActionAid, ακριβώς 2 χρόνια μετά, επέστρεψε στον τόπο της τραγωδίας. Για να ερευνήσει σε ποια κατάσταση βρίσκονται οι επιζώντες, πώς φτιάχνονται τα ρούχα που φτάνουν στις βιτρίνες των καταστημάτων και τελικά στις ντουλάπες μας και τι μπορούμε να κάνουμε εμείς ως καταναλωτές.

«Ό,τι φαίνεται, δεν είναι απαραιτήτως ό,τι δείχνει. Ωραία, φθηνά ρούχα για όλους μας, παντού σε όλον τον κόσμο. Ποιός τα κατασκευάζει; Ποιό είναι το πραγματικό κόστος του made in...; Όχι μόνο σε χρόνο και χρήμα, αλλά σε ανθρώπινες ζωές; Η ομάδα της ActionAid αναζήτησε την απάντηση στις μέγα-βιοτεχνίες του Μπαγκλαντές. Στα εκατομμύρια των ανώνυμων εργατών που ράβουν τις επώνυμες βιτρίνες της Δύσης. Ένα ντοκιμαντέρ για την σκοτεινή όψη του λαμπερού, για μια από τις αιτίες των προσφυγικών ροών. Αξίζει να το δείτε» δήλωσε η Μαρία Χούκλη.

Στο ντοκιμαντέρ βλέπουμε, επίσης, το έργο και την ελπίδα που δίνει το έργο της ActionAid στο Μπαγκλαντές με τη στήριξη των επιζώντων, την εκστρατεία για δίκαιους μισθούς στη βιομηχανία ένδυσης, την πίεση στις εταιρείες για ασφαλείς συνθήκες εργασίας, τη δημιουργία κέντρων και ξενώνων για παιδιά στις παραγκουπόλεις της Ντάκα και την ελπίδα που προσφέρει η στήριξη των Ελλήνων υποστηρικτών της ActionAid.

Παρακολουθούμε συγκλονιστικές ανθρώπινες ιστορίες: επιζώντων, συγγενών θυμάτων, εργατριών, παιδιών, αλλά και γυναικών που παλεύουν για ένα καλύτερο μέλλον για τις ίδιες και τα παιδιά τους και στηρίζονται από την ActionAid για να το πετύχουν.

Σκηνοθεσία: Λεωνίδας Πανονίδης
Σενάριο: Γεωργία Ανάγνου
Έρευνα: Γεωργία Ανάγνου – ActionAid Μπαγκλαντές
Κινηματογράφηση: Λεωνίδας Πανονίδης – Φώτης Ζυγούρης
Μοντάζ: Γιώργος Κατσουλιέρης - Χάρης Κατσουλιέρης
Ηχοληψία: Hasraf
Επιμέλεια μουσικής: Λεωνίδας Πανονίδης
Μετάφραση από Μπάγκλα: Shohel Rana Mohammad
Μετάφραση από Αγγλικά: Μάρα Ψαράκη, Αχιλλέας Κουρεμένος

Η εγγραφή και το ριπάρισμα από μένα, συγχαρητήρια στον Αντέννα και στην ActionAid για αυτό το ντοκιμαντέρ!!!!!

SCREENSHORTS:
MEDIA INFO:
General
Complete name                            : C:\Greek [DTV Ripped] Documentaries\ActionAid_Part1.mp4
Format                                   : MPEG-4
Format profile                           : Base Media / Version 2
Codec ID                                 : mp42
File size                                : 109 MiB
Duration                                 : 9mn 37s
Overall bit rate mode                    : Variable
Overall bit rate                         : 1 577 Kbps
Encoded date                             : UTC 2036-02-06 06:28:16
Tagged date                              : UTC 2036-02-06 06:28:16
Writing application                      : HandBrake 0.10.2 2015060900

Video
ID                                       : 1
Format                                   : AVC
Format/Info                              : Advanced Video Codec
Format profile                           : Main@L4.0
Format settings, CABAC                   : Yes
Format settings, ReFrames                : 4 frames
Codec ID                                 : avc1
Codec ID/Info                            : Advanced Video Coding
Duration                                 : 9mn 37s
Bit rate                                 : 1 410 Kbps
Width                                    : 720 pixels
Height                                   : 572 pixels
Display aspect ratio                     : 1.373
Frame rate mode                          : Variable
Frame rate                               : 25.000 fps
Minimum frame rate                       : 17.101 fps
Maximum frame rate                       : 26.012 fps
Color space                              : YUV
Chroma subsampling                       : 4:2:0
Bit depth                                : 8 bits
Scan type                                : Progressive
Bits/(Pixel*Frame)                       : 0.137
Stream size                              : 97.1 MiB (89%)
Writing library                          : x264 core 142 r2479 dd79a61
Encoding settings                        : cabac=1 / ref=1 / deblock=1:0:0 / analyse=0x1:0x111 / me=hex / subme=2 / psy=1 / psy_rd=1.00:0.00 / mixed_ref=0 / me_range=16 / chroma_me=1 / trellis=0 / 8x8dct=0 / cqm=0 / deadzone=21,11 / fast_pskip=1 / chroma_qp_offset=0 / threads=3 / lookahead_threads=1 / sliced_threads=0 / nr=0 / decimate=1 / interlaced=0 / bluray_compat=0 / constrained_intra=0 / bframes=3 / b_pyramid=2 / b_adapt=1 / b_bias=0 / direct=1 / weightb=1 / open_gop=0 / weightp=1 / keyint=250 / keyint_min=25 / scenecut=40 / intra_refresh=0 / rc_lookahead=10 / rc=crf / mbtree=1 / crf=20.0 / qcomp=0.60 / qpmin=0 / qpmax=69 / qpstep=4 / vbv_maxrate=20000 / vbv_bufsize=25000 / crf_max=0.0 / nal_hrd=none / filler=0 / ip_ratio=1.40 / aq=1:1.00
Encoded date                             : UTC 2036-02-06 06:28:16
Tagged date                              : UTC 2036-02-06 06:28:16
Color primaries                          : BT.601 PAL
Transfer characteristics                 : BT.709
Matrix coefficients                      : BT.601

Audio
ID                                       : 2
Format                                   : AAC
Format/Info                              : Advanced Audio Codec
Format profile                           : LC
Codec ID                                 : 40
Duration                                 : 9mn 37s
Bit rate mode                            : Variable
Bit rate                                 : 160 Kbps
Channel count                            : 2 channels
Channel positions                        : Front: L R
Sampling rate                            : 48.0 KHz
Compression mode                         : Lossy
Delay relative to video                  : 98ms
Stream size                              : 11.0 MiB (10%)
Title                                    : Stereo
Language                                 : Greek
Encoded date                             : UTC 2036-02-06 06:28:16
Tagged date                              : UTC 2036-02-06 06:28:16

LINK:


Έχει επεξεργασθεί από τον/την Admin στις Κυρ Νοε 01, 2015 11:59 pm, 1 φορά

Admin
Admin
Admin

Αριθμός μηνυμάτων : 30
Ημερομηνία εγγραφής : 29/09/2015

Επισκόπηση του προφίλ των χρηστών http://documentaryloversgr.forumgreek.com

Επιστροφή στην κορυφή Πήγαινε κάτω

- Παρόμοια θέματα
Μοιραστείτε αυτή τη δημοσίευση στο: Excite BookmarksDiggRedditDel.icio.usGoogleLiveSlashdotNetscapeTechnoratiStumbleUponNewsvineFurlYahooSmarking

[MEGA] ActionAid: Made in Bangladesh DTVRip (2015) :: Σχόλια

avatar

Δημοσίευση Την / Το Πεμ Οκτ 08, 2015 9:05 pm από Nikos7Gauros

Ευχαριστούμε πολύ!! Very Happy

Επιστροφή στην κορυφή Πήγαινε κάτω

Επισκόπηση προηγούμενης Θ.Ενότητας Επισκόπηση επόμενης Θ.Ενότητας Επιστροφή στην κορυφή


 
Δικαιώματα σας στην κατηγορία αυτή
Μπορείτε να απαντήσετε στα Θέματα αυτής της Δ.Συζήτησης