DocumentaryLoversGR
Τι θα λέγατε να εγγραφτείτε σήμερα στο Νο1 Φόρουμ για Ντοκιμαντέρ παντός ειδών?? Έχουμε πληθώρα από Ντοκιμαντέρ, μεταγλωττισμένα και Υποτιτλησμένα, ενώ θα έχετε την ευκαιρία να πάρετε μέρος στις συζητήσεις μας!!

[MEGA] Les objets du XXème siècle DTVRip

Επισκόπηση προηγούμενης Θ.Ενότητας Επισκόπηση επόμενης Θ.Ενότητας Πήγαινε κάτω

30092015

Δημοσίευση 

[MEGA] Les objets du XXème siècle DTVRip






Η εγγραφή από Μεσόγειος TV και το ριπάρισμα είναι από μένα, τον υποτιτλησμό κάνει η Καρολίν Κιρκινέζου από τα studio της Cartoonist!!

SCREENSHORTS:
MEDIA INFO:

General

Complete name : C:\Greek [DTV Ripped] Documentaries\Τα επιτεύγματα του 20ου αιώνα Νο1.mp4
Format : MPEG-4
Format profile : Base Media / Version 2
Codec ID : mp42
File size : 83.8 MiB
Duration : 10mn 38s
Overall bit rate : 1 101 Kbps

Video

ID : 1
Format : AVC
Format/Info : Advanced Video Codec
Format profile : Baseline@L3.1
Format settings, CABAC : No
Format settings, ReFrames : 1 frame
Format settings, GOP : M=1, N=15
Codec ID : avc1
Codec ID/Info : Advanced Video Coding
Duration : 10mn 38s
Source duration : 10mn 38s
Bit rate mode : Variable
Bit rate : 966 Kbps
Width : 960 pixels
Height : 720 pixels
Display aspect ratio : 4:3
Frame rate mode : Constant
Frame rate : 29.970 fps
Color space : YUV
Chroma subsampling : 4:2:0
Bit depth : 8 bits
Scan type : Progressive
Bits/(Pixel*Frame) : 0.047
Stream size : 73.6 MiB (88%)
Source stream size : 73.6 MiB (88%)
mdhd_Duration : 638538


Audio

ID : 2
Format : AAC
Format/Info : Advanced Audio Codec
Format profile : LC
Codec ID : 40
Duration : 10mn 38s
Bit rate mode : Constant
Bit rate : 128 Kbps
Channel count : 2 channels
Channel positions : Front: L R
Sampling rate : 48.0 KHz
Compression mode : Lossy
Stream size : 10.0 MiB (12%)
mdhd_Duration : 638485

LINK:
https://mega.nz/#!SA8ETSCa!nDoiawbHscs9IyMxu-whP024jJuNuWG-HIbSu7blzG0

Admin
Admin
Admin

Αριθμός μηνυμάτων : 29
Ημερομηνία εγγραφής : 29/09/2015

Επισκόπηση του προφίλ των χρηστών http://documentaryloversgr.forumgreek.com

Επιστροφή στην κορυφή Πήγαινε κάτω

- Παρόμοια θέματα
Μοιραστείτε αυτή τη δημοσίευση στο: Excite BookmarksDiggRedditDel.icio.usGoogleLiveSlashdotNetscapeTechnoratiStumbleUponNewsvineFurlYahooSmarking

[MEGA] Les objets du XXème siècle DTVRip :: Σχόλια

Δημοσίευση Την / Το Τετ Σεπ 30, 2015 5:08 pm από levas

θενξ!!

Επιστροφή στην κορυφή Πήγαινε κάτω

avatar

Δημοσίευση Την / Το Τετ Οκτ 07, 2015 6:29 pm από Nikos7Gauros

Ευχαριστούμε πολύ!! Smile

Επιστροφή στην κορυφή Πήγαινε κάτω

Επισκόπηση προηγούμενης Θ.Ενότητας Επισκόπηση επόμενης Θ.Ενότητας Επιστροφή στην κορυφή


 
Δικαιώματα σας στην κατηγορία αυτή
Δεν μπορείτε να απαντήσετε στα Θέματα αυτής της Δ.Συζήτησης