DocumentaryLoversGR
Τι θα λέγατε να εγγραφτείτε σήμερα στο Νο1 Φόρουμ για Ντοκιμαντέρ παντός ειδών?? Έχουμε πληθώρα από Ντοκιμαντέρ, μεταγλωττισμένα και Υποτιτλησμένα, ενώ θα έχετε την ευκαιρία να πάρετε μέρος στις συζητήσεις μας!!

[MEGA] A toute épreuve DTVRip

Επισκόπηση προηγούμενης Θ.Ενότητας Επισκόπηση επόμενης Θ.Ενότητας Πήγαινε κάτω

08102015

Δημοσίευση 

[MEGA] A toute épreuve DTVRip




Ένα ντοκιμαντερ για τους λάτρεις του αθλητισμού, με υποτιτλησμό από την CARTOONIST!!!!

SCREENSHORTS:
MEDIA INFO:
General
Complete name                            : C:\Users\seven\Documents\Με κομμένη την ανάσα Ενόργανη Γυμναστική.m4v
Format                                   : MPEG-4
Format profile                           : Base Media / Version 2
Codec ID                                 : mp42
File size                                : 121 MiB
Duration                                 : 12mn 42s
Overall bit rate mode                    : Variable
Overall bit rate                         : 1 333 Kbps
Encoded date                             : UTC 2036-02-06 06:28:16
Tagged date                              : UTC 2036-02-06 06:28:16
Writing application                      : HandBrake 0.10.2 2015060900

Video
ID                                       : 1
Format                                   : AVC
Format/Info                              : Advanced Video Codec
Format profile                           : Main@L4.0
Format settings, CABAC                   : Yes
Format settings, ReFrames                : 4 frames
Codec ID                                 : avc1
Codec ID/Info                            : Advanced Video Coding
Duration                                 : 12mn 42s
Bit rate                                 : 1 167 Kbps
Width                                    : 720 pixels
Height                                   : 474 pixels
Display aspect ratio                     : 1.657
Original display aspect ratio            : 1.658
Frame rate mode                          : Variable
Frame rate                               : 24.964 fps
Minimum frame rate                       : 1.000 fps
Maximum frame rate                       : 25.007 fps
Color space                              : YUV
Chroma subsampling                       : 4:2:0
Bit depth                                : 8 bits
Scan type                                : Progressive
Bits/(Pixel*Frame)                       : 0.137
Stream size                              : 106 MiB (88%)
Writing library                          : x264 core 142 r2479 dd79a61
Encoding settings                        : cabac=1 / ref=1 / deblock=1:0:0 / analyse=0x1:0x111 / me=hex / subme=2 / psy=1 / psy_rd=1.00:0.00 / mixed_ref=0 / me_range=16 / chroma_me=1 / trellis=0 / 8x8dct=0 / cqm=0 / deadzone=21,11 / fast_pskip=1 / chroma_qp_offset=0 / threads=3 / lookahead_threads=1 / sliced_threads=0 / nr=0 / decimate=1 / interlaced=0 / bluray_compat=0 / constrained_intra=0 / bframes=3 / b_pyramid=2 / b_adapt=1 / b_bias=0 / direct=1 / weightb=1 / open_gop=0 / weightp=1 / keyint=250 / keyint_min=25 / scenecut=40 / intra_refresh=0 / rc_lookahead=10 / rc=crf / mbtree=1 / crf=20.0 / qcomp=0.60 / qpmin=0 / qpmax=69 / qpstep=4 / vbv_maxrate=20000 / vbv_bufsize=25000 / crf_max=0.0 / nal_hrd=none / filler=0 / ip_ratio=1.40 / aq=1:1.00
Encoded date                             : UTC 2036-02-06 06:28:16
Tagged date                              : UTC 2036-02-06 06:28:16
Color primaries                          : BT.601 PAL
Transfer characteristics                 : BT.709
Matrix coefficients                      : BT.601

Audio
ID                                       : 2
Format                                   : AAC
Format/Info                              : Advanced Audio Codec
Format profile                           : LC
Codec ID                                 : 40
Duration                                 : 12mn 42s
Bit rate mode                            : Variable
Bit rate                                 : 160 Kbps
Channel count                            : 2 channels
Channel positions                        : Front: L R
Sampling rate                            : 48.0 KHz
Compression mode                         : Lossy
Delay relative to video                  : 96ms
Stream size                              : 14.6 MiB (12%)
Title                                    : Stereo
Encoded date                             : UTC 2036-02-06 06:28:16
Tagged date                              : UTC 2036-02-06 06:28:16

LINK:


Έχει επεξεργασθεί από τον/την Admin στις Πεμ Οκτ 08, 2015 6:29 pm, 1 φορά

Admin
Admin
Admin

Αριθμός μηνυμάτων : 29
Ημερομηνία εγγραφής : 29/09/2015

Επισκόπηση του προφίλ των χρηστών http://documentaryloversgr.forumgreek.com

Επιστροφή στην κορυφή Πήγαινε κάτω

- Παρόμοια θέματα
Μοιραστείτε αυτή τη δημοσίευση στο: Excite BookmarksDiggRedditDel.icio.usGoogleLiveSlashdotNetscapeTechnoratiStumbleUponNewsvineFurlYahooSmarking

[MEGA] A toute épreuve DTVRip :: Σχόλια

avatar

Δημοσίευση Την / Το Πεμ Οκτ 08, 2015 7:40 am από Nikos7Gauros

Ευχαριστούμε πολύ!! Smile

Επιστροφή στην κορυφή Πήγαινε κάτω

Επισκόπηση προηγούμενης Θ.Ενότητας Επισκόπηση επόμενης Θ.Ενότητας Επιστροφή στην κορυφή


 
Δικαιώματα σας στην κατηγορία αυτή
Δεν μπορείτε να απαντήσετε στα Θέματα αυτής της Δ.Συζήτησης