DocumentaryLoversGR
Τι θα λέγατε να εγγραφτείτε σήμερα στο Νο1 Φόρουμ για Ντοκιμαντέρ παντός ειδών?? Έχουμε πληθώρα από Ντοκιμαντέρ, μεταγλωττισμένα και Υποτιτλησμένα, ενώ θα έχετε την ευκαιρία να πάρετε μέρος στις συζητήσεις μας!!

[MEGA] Στο Ακαδημαϊκό Τέταρτο DTVRip (2015)

Επισκόπηση προηγούμενης Θ.Ενότητας Επισκόπηση επόμενης Θ.Ενότητας Πήγαινε κάτω

03102015

Δημοσίευση 

[MEGA] Στο Ακαδημαϊκό Τέταρτο DTVRip (2015)






Σειρά πορτρέτων για τη φοιτητική ζωή στην Ελλάδα σήμερα, εντός κι εκτός Πανεπιστημίου.

Πιλοτικό πρόγραμμα πρακτικής άσκησης τελειόφοιτων  φοιτητών του τμήματος Πολιτισμικής Τεχνολογίας και Επικοινωνίας του Πανεπιστημίου Αιγαίου.

Ιδέα-Σχεδιασμός-Εκτέλεση: Jump Cat Team
Παραγωγή: Βουλή-Τηλεόραση 2015


SCREENSHORTS:
MEDIA INFO:
General
Complete name                            : C:\Greek [DTV Ripped] Documentaries\Στο Ακαδημαικό Τέταρτο\Στο Ακαδημαικό Τέταρτο Πολιτιστικές Ομάδες.mp4
Format                                   : MPEG-4
Format profile                           : Base Media / Version 2
Codec ID                                 : mp42
File size                                : 168 MiB
Duration                                 : 15mn 54s
Overall bit rate                         : 1 477 Kbps

Video
ID                                       : 1
Format                                   : AVC
Format/Info                              : Advanced Video Codec
Format profile                           : Baseline@L3.1
Format settings, CABAC                   : No
Format settings, ReFrames                : 1 frame
Format settings, GOP                     : M=1, N=15
Codec ID                                 : avc1
Codec ID/Info                            : Advanced Video Coding
Duration                                 : 15mn 54s
Source duration                          : 15mn 54s
Bit rate mode                            : Variable
Bit rate                                 : 1 342 Kbps
Width                                    : 960 pixels
Height                                   : 720 pixels
Display aspect ratio                     : 4:3
Frame rate mode                          : Constant
Frame rate                               : 29.970 fps
Color space                              : YUV
Chroma subsampling                       : 4:2:0
Bit depth                                : 8 bits
Scan type                                : Progressive
Bits/(Pixel*Frame)                       : 0.065
Stream size                              : 153 MiB (91%)
Source stream size                       : 153 MiB (91%)
mdhd_Duration                            : 954053

Audio
ID                                       : 2
Format                                   : AAC
Format/Info                              : Advanced Audio Codec
Format profile                           : LC
Codec ID                                 : 40
Duration                                 : 15mn 54s
Bit rate mode                            : Constant
Bit rate                                 : 128 Kbps
Channel count                            : 2 channels
Channel positions                        : Front: L R
Sampling rate                            : 48.0 KHz
Compression mode                         : Lossy
Stream size                              : 14.9 MiB (9%)
mdhd_Duration                            : 954005

LINK:
Πολιτιστικές Ομάδες https://mega.nz/#!2MFUVJDb!E7D6drm5bo0dal0W22m0gLwdixgYt6MeS2l8W2kwE_Q
Καινοτομία https://mega.nz/#!3R9mEBhB!GKsO7a6H2CZ65MoO2CZHi9WYF2kQ4_rC0gIfGazeSgA

Admin
Admin
Admin

Αριθμός μηνυμάτων : 29
Ημερομηνία εγγραφής : 29/09/2015

Επισκόπηση του προφίλ των χρηστών http://documentaryloversgr.forumgreek.com

Επιστροφή στην κορυφή Πήγαινε κάτω

- Παρόμοια θέματα
Μοιραστείτε αυτή τη δημοσίευση στο: Excite BookmarksDiggRedditDel.icio.usGoogleLiveSlashdotNetscapeTechnoratiStumbleUponNewsvineFurlYahooSmarking

[MEGA] Στο Ακαδημαϊκό Τέταρτο DTVRip (2015) :: Σχόλια

Δημοσίευση Την / Το Κυρ Οκτ 04, 2015 2:47 pm από Alex

Ευχαριστώ!

Επιστροφή στην κορυφή Πήγαινε κάτω

avatar

Δημοσίευση Την / Το Τρι Οκτ 06, 2015 11:42 pm από Nikos7Gauros

Ευχαριστώ πολύ!! Smile

Επιστροφή στην κορυφή Πήγαινε κάτω

Επισκόπηση προηγούμενης Θ.Ενότητας Επισκόπηση επόμενης Θ.Ενότητας Επιστροφή στην κορυφή


 
Δικαιώματα σας στην κατηγορία αυτή
Δεν μπορείτε να απαντήσετε στα Θέματα αυτής της Δ.Συζήτησης