DocumentaryLoversGR
Τι θα λέγατε να εγγραφτείτε σήμερα στο Νο1 Φόρουμ για Ντοκιμαντέρ παντός ειδών?? Έχουμε πληθώρα από Ντοκιμαντέρ, μεταγλωττισμένα και Υποτιτλησμένα, ενώ θα έχετε την ευκαιρία να πάρετε μέρος στις συζητήσεις μας!!

[MEGA] Marine Reserves: Restoring the Oceans DTVRip (2006)

Επισκόπηση προηγούμενης Θ.Ενότητας Επισκόπηση επόμενης Θ.Ενότητας Πήγαινε κάτω

29092015

Δημοσίευση 

[MEGA] Marine Reserves: Restoring the Oceans DTVRip (2006)






Μία μηκρού μήκους ταινία ντοκιμαντέρ της GreenPeace για τα θαλάσσια καταφύγια, παραγωγής 2006.
Η εγγραφή και το ριπάρισμα έγιναν από τον NickSplat, από τον περειφεριακό τηλεοπτικό σταθμό της Στερεάς Ελλάδας - Έβοιας "Έψιλον Τηλεόραση" και ο υποτιτλισμός έγινε στα στούντιο της VideoPress.

SCREENSHORTS:
MEDIA INFO:
General
Complete name                            : C:\Greek [DTV Ripped] Documentaries\Greenpeace Θαλάσσια Καταφύγια.mp4
Format                                   : MPEG-4
Format profile                           : Base Media / Version 2
Codec ID                                 : mp42
File size                                : 201 MiB
Duration                                 : 12mn 26s
Overall bit rate                         : 2 257 Kbps

Video
ID                                       : 1
Format                                   : AVC
Format/Info                              : Advanced Video Codec
Format profile                           : Baseline@L3.1
Format settings, CABAC                   : No
Format settings, ReFrames                : 1 frame
Format settings, GOP                     : M=1, N=15
Codec ID                                 : avc1
Codec ID/Info                            : Advanced Video Coding
Duration                                 : 12mn 26s
Source duration                          : 12mn 26s
Bit rate mode                            : Variable
Bit rate                                 : 2 121 Kbps
Width                                    : 960 pixels
Height                                   : 720 pixels
Display aspect ratio                     : 4:3
Frame rate mode                          : Constant
Frame rate                               : 29.970 fps
Color space                              : YUV
Chroma subsampling                       : 4:2:0
Bit depth                                : 8 bits
Scan type                                : Progressive
Bits/(Pixel*Frame)                       : 0.102
Stream size                              : 189 MiB (94%)
Source stream size                       : 189 MiB (94%)
mdhd_Duration                            : 746279

Audio
ID                                       : 2
Format                                   : AAC
Format/Info                              : Advanced Audio Codec
Format profile                           : LC
Codec ID                                 : 40
Duration                                 : 12mn 26s
Bit rate mode                            : Constant
Bit rate                                 : 128 Kbps
Channel count                            : 2 channels
Channel positions                        : Front: L R
Sampling rate                            : 48.0 KHz
Compression mode                         : Lossy
Stream size                              : 11.9 MiB (6%)
mdhd_Duration                            : 746219

LINK:


Έχει επεξεργασθεί από τον/την Admin στις Τρι Σεπ 29, 2015 11:37 pm, 1 φορά

Admin
Admin
Admin

Αριθμός μηνυμάτων : 29
Ημερομηνία εγγραφής : 29/09/2015

Επισκόπηση του προφίλ των χρηστών http://documentaryloversgr.forumgreek.com

Επιστροφή στην κορυφή Πήγαινε κάτω

- Παρόμοια θέματα
Μοιραστείτε αυτή τη δημοσίευση στο: Excite BookmarksDiggRedditDel.icio.usGoogleLiveSlashdotNetscapeTechnoratiStumbleUponNewsvineFurlYahooSmarking

[MEGA] Marine Reserves: Restoring the Oceans DTVRip (2006) :: Σχόλια

Δημοσίευση Την / Το Τρι Σεπ 29, 2015 11:06 pm από Alex

Μπράβο! Smile

Επιστροφή στην κορυφή Πήγαινε κάτω

Δημοσίευση Την / Το Τρι Σεπ 29, 2015 11:07 pm από Alex

Το link δεν μου εμφανίζεται παρόλο που έκανα σχόλιο

Επιστροφή στην κορυφή Πήγαινε κάτω

Δημοσίευση Την / Το Τρι Σεπ 29, 2015 11:38 pm από Admin

Πάτα link και σύρε το ποντίκι στο πλαίσιο θα σου το βγάλει!!

Επιστροφή στην κορυφή Πήγαινε κάτω

Δημοσίευση Την / Το Τρι Σεπ 29, 2015 11:41 pm από Alex

Α ναι απλώς είναι άσπρο και δεν φαίνεται όταν δεν έχεις το ποντίκι απο πάνω, επίσης γιατί τα σχόλια φαίνονται ανάποδα;

Επιστροφή στην κορυφή Πήγαινε κάτω

Δημοσίευση Την / Το Τετ Σεπ 30, 2015 12:07 am από Admin

Διορθώθηκε!!

Επιστροφή στην κορυφή Πήγαινε κάτω

Δημοσίευση Την / Το Τετ Σεπ 30, 2015 12:22 am από Alex

Ωραία, αν θες βοήθεια και για το χρώμα του link ρώτα με! Smile

Επιστροφή στην κορυφή Πήγαινε κάτω

avatar

Δημοσίευση Την / Το Τετ Οκτ 07, 2015 6:31 pm από Nikos7Gauros

Ευχαριστώ!! Smile

Επιστροφή στην κορυφή Πήγαινε κάτω

Επισκόπηση προηγούμενης Θ.Ενότητας Επισκόπηση επόμενης Θ.Ενότητας Επιστροφή στην κορυφή


 
Δικαιώματα σας στην κατηγορία αυτή
Δεν μπορείτε να απαντήσετε στα Θέματα αυτής της Δ.Συζήτησης